Nurse 3D (Nurse 3-D) 2013 Ingles Web- 720p AC-3 5.1 MEGA PL .

";


FICHA TECNICA:
Nurse 3D (Nurse 3-D)
Año 2013
Duración 83 min.
PaísEstados Unidos
Director Douglas Aarniokoski
Guión Douglas Aarniokoski, David Loughery
Música Anton Sanko
Fotografía Boris Mojsovski
Reparto
Paz de la Huerta, Katrina Bowden, Corbin Bleu, Judd Nelson, Boris Kodjoe, Niecy Nash, Adam Herschman, Melanie Scrofano,
Productora Lions Gate Entertainment / Lionsgate
Género Thriller | 3-D
SINOPSIS:
Abby Russell es una enfermera que rastrea y castiga a hombres deshonestos y que, para llegar a ellos, utiliza su indiscutible sensualidad

INFORMACION TECNICA:
Enlaces de Descarga
Format : Matroska Format version : Version 1 File size : 2.54 GiB Duration : 1h 23mn Overall bit rate : 4 337 Kbps Encoded date : UTC 2014-02-10 04:04:04 Writing application : mkvmerge v1.6.5 (‘Watcher Of The Skies’) built on Dec 7 2005 18:53:53 Writing library : libebml v0.7.6 + libmatroska v0.8.0 Video ID : 1 Format : AVC Format/Info : Advanced Video Codec Format profile : Main@L3.1 Format settings, CABAC : No Format settings, ReFrames : 2 frames Codec ID : V_MPEG4/ISO/AVC Duration : 1h 23mn Bit rate : 3 867 Kbps Width : 1 280 pixels Height : 530 pixels Display aspect ratio : 2.40:1 Frame rate : 23.976 fps Color space : YUV Chroma subsampling : 4:2:0 Bit depth : 8 bits Scan type : Progressive Bits/(Pixel*Frame) : 0.238 Stream size : 2.27 GiB (89%) Language : English Color primaries : BT.709-5, BT.1361, IEC 61966-2-4, SMPTE RP177 Transfer characteristics : BT.709-5, BT.1361 Matrix coefficients : BT.709-5, BT.1361, IEC 61966-2-4 709, SMPTE RP177 Audio ID : 2 Format : AC-3 Format/Info : Audio Coding 3 Mode extension : CM (complete main) Codec ID : A_AC3 Duration : 1h 23mn Bit rate mode : Constant Bit rate : 384 Kbps Channel(s) : 6 channels Channel positions : Front: L C R, Side: L R, LFE Sampling rate : 48.0 KHz Bit depth : 16 bits Compression mode : Lossy Stream size : 230 MiB (9%) Language : English Text ID : 3 Format : UTF-8 Codec ID : S_TEXT/UTF8 Codec ID/Info : UTF-8 Plain Text Language : Spanish
**** By.Lestat_shifo © ****

>>Enlace para Descargar Nurse 3D (Nurse 3-D) 2013 Ingles Web- 720p AC-3 5.1 MEGA PL . 1 Link<<

https://mega.co.nz/#!3AZUiCSI!AJezYwBW2QStoiImkErKAgDZzAQA02IrrdolypB69nc https://mega.co.nz/#!qUQARSJI!AEn_qwDAqvpCAinf_PHRjwAqmgQAnu9lQoDijPxxIVs https://mega.co.nz/#!PRhxWDLZ!AEBE-QBW1sGJCK_5iIiXBwBpPRIAP17didsHd4hFibg https://mega.co.nz/#!3cR2QZQa!AO2R-AAwNQWwty6SfXpZGQAeFRkAoTtKsLrJsH2SOUM
PUTLOCKER
http://www.putlocker.com/file/F2D0CA716AA5AD17 http://www.putlocker.com/file/04E9DE70EF286A5F http://www.putlocker.com/file/5E4F8D95C59A1692 http://www.putlocker.com/file/1540E49461EA9707
Enlaces Intercambiables

shifo

PASSWORD: shifo

Etiquetas: , , , ,